Take the 2-minute tour ×
Video Production Stack Exchange is a question and answer site for engineers, producers, editors, and enthusiasts spanning the fields of video, and media creation. It's 100% free, no registration required.

I have a Satellite STB which saves .mpg files.

I can't play them through vlc and avidemux gives me a blurred output?

Is there any way I can edit these recordings?

EDIT: Here is a link to a very short clip in this format (6.6MB).

enter image description here

mediainfo output:

General
Complete name                            : CCTV-11[02JUN2012-183712].mpg
Format                                   : MPEG-PS
File size                                : 3.94 GiB
Duration                                 : 1h 43mn
Overall bit rate mode                    : Variable
Overall bit rate                         : 5 473 Kbps

Video
ID                                       : 234 (0xEA)
Format                                   : MPEG Video
Format version                           : Version 2
Format profile                           : Main@Main
Format settings, BVOP                    : Yes
Format settings, Matrix                  : Custom
Format settings, GOP                     : M=3, N=12
Duration                                 : 1h 43mn
Bit rate mode                            : Variable
Bit rate                                 : 5 108 Kbps
Maximum bit rate                         : 10 000 Kbps
Width                                    : 720 pixels
Height                                   : 576 pixels
Display aspect ratio                     : 4:3
Frame rate                               : 25.000 fps
Standard                                 : PAL
Color space                              : YUV
Chroma subsampling                       : 4:2:0
Bit depth                                : 8 bits
Scan type                                : Interlaced
Scan order                               : Top Field First
Compression mode                         : Lossy
Bits/(Pixel*Frame)                       : 0.493
Stream size                              : 3.68 GiB (93%)

Audio
ID                                       : 192 (0xC0)
Format                                   : MPEG Audio
Format version                           : Version 1
Format profile                           : Layer 2
Duration                                 : 1h 43mn
Bit rate mode                            : Constant
Bit rate                                 : 256 Kbps
Channel(s)                               : 2 channels
Sampling rate                            : 48.0 KHz
Compression mode                         : Lossy
Delay relative to video                  : -921ms
Stream size                              : 189 MiB (5%)
share|improve this question
    
I'm not sure, but I think .mpg is just a container which can contain different codecs. To diagnose your problem, could you maybe post some more information on the video? Running MediaInfo and posting the output here will help people to answer your question. –  Bart Arondson Feb 7 '13 at 16:40
    
@BartArondson done –  trideceth12 Feb 7 '13 at 16:48
    
OK, not sure what it might be... but googling around shows that someone else had the same problem and fixed it with a remux to mkv. As Avidemux is also showing you a weird output I'm guessing the stream might be damaged (no idea, just a guess). Look here on how to repair it. –  Bart Arondson Feb 7 '13 at 21:15
    
@BartArondson ProjectX demuxed the video correctly, but the demuxed audio stutters constantly.. now i'm looking for a tool to demux the audio correctly –  trideceth12 Feb 9 '13 at 6:11
    
@BartArondson I added a link to an example file –  trideceth12 Feb 9 '13 at 11:03

1 Answer 1

Okay this has a stupid answer.

I installed the ubuntu-restricted-extras package and avidemux opens this file fine now.

Looks like I didn't have the right codecs.

share|improve this answer
    
Don't forget to mark this answer as accepted, such that this question is marked as answered. –  Bart Arondson Feb 9 '13 at 22:46

Your Answer

 
discard

By posting your answer, you agree to the privacy policy and terms of service.

Not the answer you're looking for? Browse other questions tagged or ask your own question.