Take the 2-minute tour ×
Video Production Stack Exchange is a question and answer site for engineers, producers, editors, and enthusiasts spanning the fields of video, and media creation. It's 100% free, no registration required.

Sample output

[Parsed_showinfo_0 @ 0x7f9a3b600000] n:0 pts:0 pts_time:0 pos:194408 fmt:yuvj420p sar:0/1 s:1920x1080 i:P iskey:1 type:I checksum:072007CF plane_checksum:[AAFB805D 153EE2B8 65C9A49C]
[Parsed_showinfo_0 @ 0x7f9a3b600000] n:1 pts:1001 pts_time:0.0417083 pos:366248 fmt:yuvj420p sar:0/1 s:1920x1080 i:P iskey:0 type:P checksum:C9D358B5 plane_checksum:[54D0A047 7C40CC7B 60D3EBD5]
[Parsed_showinfo_0 @ 0x7f9a3b600000] n:2 pts:2002 pts_time:0.0834167 pos:594116 fmt:yuvj420p sar:0/1 s:1920x1080 i:P iskey:0 type:P checksum:A05675B2 plane_checksum:[556FF30D 8CD9462B 0F3E3C6B]
[Parsed_showinfo_0 @ 0x7f9a3b600000] n:3 pts:3003 pts_time:0.125125 pos:779876 fmt:yuvj420p sar:0/1 s:1920x1080 i:P iskey:0 type:P checksum:B17CC362 plane_checksum:[AE090A39 337190E2 B6E52847]
[Parsed_showinfo_0 @ 0x7f9a3b600000] n:4 pts:4004 pts_time:0.166833 pos:952520 fmt:yuvj420p sar:0/1 s:1920x1080 i:P iskey:0 type:P checksum:F7C5D531 plane_checksum:[EA3F8FAF E109630D A582E266]
[Parsed_showinfo_0 @ 0x7f9a3b600000] n:5 pts:5005 pts_time:0.208542 pos:1107392 fmt:yuvj420p sar:0/1 s:1920x1080 i:P iskey:0 type:P checksum:CF48BDB1 plane_checksum:[C87B1176 03581F2B 70EC8D10]

The documents for the showinfo filter define position as

‘pos’ The position of the frame in the input stream, or -1 if this information is unavailable and/or meaningless (for example in case of synthetic video).

Why does position not start at 0 ? Why are the positions not sequential 1,2,3,4 etc

When I decompile videos into frames I am trying to label the resulting frames in an order that represents their position in the video to allow me to do things like take different sections of the video at different times but maintain their natural ordering .

share|improve this question

1 Answer 1

I can't say with authority, but it's likely that 'pos' is the byte offset into the file where the frame begins. IOW these aren't frame numbers. In the listing you show the sequence is monotonic, it just doesn't increase by single units. If it is byte offset, it wouldn't start at 0 because there are headers in the file before actual frame data.

share|improve this answer
    
that does seem to make sense . I was looking at the problem with my art hat and not my programmer hat . –  James Andino Jun 25 at 12:33

Your Answer

 
discard

By posting your answer, you agree to the privacy policy and terms of service.

Not the answer you're looking for? Browse other questions tagged or ask your own question.